Skip to main content

Reason For Leaving Live at The Klinic on 2003-11-14




intro, Sea Of Lovin, Hustler, Shame, Sun Signal, Wetter, Siberia, Ruka, Santeria, Two Joints, Bad Fish, Pawnshop, What I Got, Wrong Way*, Slow Ride, I Got The Blues, Stepping Razor, Doors With Widgets, Elven Girlfriend, Good Foot


Collection ReasonForLeaving
Band/Artist Reason For Leaving
Venue The Klinic
Location Madison WI

Source KM140's > MV100 > SBM-1 (Oade mod) > TCD-D100 > DAT
Lineage DAT > FLAC
Taped by TAS
Transferred by TAS

Notes

set I- Reason for Leaving songs, Set II- Sublime songs
*Michael Brania sings the Elvis part on Wrong Way

show flyer is here- http://www.expressobeans.com/show.php?id=5000
-=-=-=-=-=-=-=-=-=-=-=-=-=-=-=-=-=-=-=-=-=-=-=-=-=-=-=-=-=-=-=-=-=-=-=-=-=-=-=-=-=-=
Recorded with:

Mics: Neumann KM-140 (Cardioid Condenser ORTF pair shock-mounted on stand, approx 6" from ceiling)

Mic Preamp: Beyer MV-100 (2-channel mic power + 20dB gain) >
Analog to Digital Converter: Sony SBM-1 (Oade mod) >
Tape deck: Sony TCD-D100
Sampling Rate: 48khz

-=-=-=-=-=-=-=-=-=-=-=-=-=-=-=-=-=-=-=-=-=-=-=-=-=-=-=-=-=-=-=-=-=-=-=-=-=-=-=-=-=-=

Transcription:
TCD-D100 DAT> "Oade Cable" > SPDIF> Audiomedia III PCI card> Power Macintosh 8500/180>
Protools4.1.1 Sample Rate Conversion- "BEST" mode> 44.1KHz .WAV files
(un-resampled 48KHz file also archived using SHN compression)
.WAV's> Shorten 1.1a3 >.SHN's

shntool results
length expanded size cdr WAVE problems filename
4:35.43 48611180 --- -- ---xx rfl2003-11-14d1t01.flac intro
5:36.58 59406860 --- -- ---xx rfl2003-11-14d1t02.flac Sea Of Lovin
4:52.39 51600572 --- -- ---xx rfl2003-11-14d1t03.flac Hustler
6:33.29 69393452 --- -- ---xx rfl2003-11-14d1t04.flac Shame
10:09.16 107465276 --- -- ---xx rfl2003-11-14d1t05.flac Sun Signal
4:32.08 47999660 --- -- ---xx rfl2003-11-14d1t06.flac Wetter
6:26.56 68222156 --- -- ---xx rfl2003-11-14d1t07.flac Siberia
42:46.24 452699156 B (totals for 7 files, 0.5113 overall compression ratio)

length expanded size cdr WAVE problems filename
6:05.51 64505996 --- -- ---xx rfl2003-11-14d2t01.flac Ruka
3:31.60 37361564 --- -- ---xx rfl2003-11-14d2t02.flac Santeria
4:52.47 51619388 --- -- ---xx rfl2003-11-14d2t03.flac Two Joints
3:51.72 40917788 --- -- ---xx rfl2003-11-14d2t04.flac Bad Fish
5:24.33 57231260 --- -- ---xx rfl2003-11-14d2t05.flac Pawnshop
5:00.05 52931804 --- -- ---xx rfl2003-11-14d2t06.flac What I Got
4:21.24 46096892 --- -- ---xx rfl2003-11-14d2t07.flac Wrong Way * w/ Elvis Brania
10:11.58 107916860 --- -- ---xx rfl2003-11-14d2t08.flac Slow Ride
8:17.09 87692012 --- -- ---xx rfl2003-11-14d2t09.flac I Got The Blues
4:49.55 51109004 --- -- ---xx rfl2003-11-14d2t10.flac Stepping Razor
6:33.74 69499292 --- -- ---xx rfl2003-11-14d2t11.flac Doors With Widgets
4:17.51 45454796 --- -- ---xx rfl2003-11-14d2t12.flac Elven Girlfriend
8:03.25 85260044 --- -- ---xx rfl2003-11-14d2t13.flac Good Foot (end cut)
75:21.39 797596700 B (totals for 13 files, 0.5201 overall compression ratio)


-=-=-=-=-=-=-=-=-=-=-=-=-=-=-=-=-=-=-=-=-=-=-=-=-=-=-=-=-=-=-=-=-=-=-=-=-=-=-=-=-=-=
Soundscape Preservation Society Founded 1991
http://www.geocities.com/soundscapepreservation/
-=-=-=-=-=-=-=-=-=-=-=-=-=-=-=-=-=-=-=-=-=-=-=-=-=-=-=-=-=-=-=-=-=-=-=-=-=-=-=-=-=-=a

Reviews

Reviewer: morst - - November 26, 2005
Subject: the first Madison Jose's gig
I think they played a halloween set of Sublime covers in Green Bay, but this was Jose and Sumlimes' first Madison-area appearance. They are now a popular favorite at Mr Roberts' Bar, usually the third Friday of each month.

This tape is decent, performance is fun, if a little bit low-fi. It's notable also because Michael Brania sings a very nice Elvis on Wrong Way! I'll give it four **** stars!!
PEOPLE ALSO FOUND
Reason For Leaving
by Reason For Leaving
789
0
0
Source: KM140 Matrix > DAT
Reason For Leaving
by Reason For Leaving
3,080
0
2
( 2 reviews )
Source: Neumann KM140's > Beyer MV100 > Sony SBM-1 (Oade mod) > Sony TCD-D100 DAT @48KHz
Reason For Leaving
by Reason For Leaving
13,711
0
1
( 1 reviews )
Source: Neumann KM140's (approx ORTF, FOB) > Beyer MV100 (+20dB gain) > Sony SBM-1 (Oade mod) > 48KHz S/Pdif > Sony PCM-M1
Reason For Leaving
by Reason For Leaving
2,242
1
0
Source: DAUD
Reason For Leaving
by Reason For Leaving
1,042
1
0
Source: Sony MTL-F96 mic (mono) > Sony PCM-M1 > DAT @ 48KHz
Reason For Leaving
by Reason For Leaving
494
1
1
( 1 reviews )
Source: Neumann KM140's > Beyer MV100 > Sony PCM-M1 > DAT master
Reason For Leaving
by Reason For Leaving
763
2
1
( 1 reviews )
Source: Soundcraft console > Yamaha CD writer > CD
Reason For Leaving
by Reason For Leaving
602
1
0
Source: KM140's > MV100 > SBM-1 (Oade Mod) > M1 > DAT
Reason For Leaving
by Reason For Leaving
1,171
1
0
Source: Neumann KM140's (ORTF, shock mounted on clamp, left side) > Beyer MV100 > Sony PCM-M1 > DAT @16-bit/48 KHz
Reason For Leaving
by Reason For Leaving
3,557
2
1
( 1 reviews )
Source: Neumann AK40 cardioid capsules (ORTF on stand at SBD)> "active cables" > KM100 "bodies"> DDA house mix console > matrix w/ stage mics > Sony TCD-D10 Pro II DAT @ 48KHz